Spider-Man Into The Spider-Verse (2018) 720p Dual Audio [Hindi BD...

  • Category Movies
  • Type Dubs/Dual Audio
  • Language Hindi
  • Total size 1.4 GB
  • Uploaded By XForc3
  • Downloads 3118
  • Last checked 1 day ago
  • Date uploaded 5 days ago
  • Seeders 32
  • Leechers 12

Spider-Man: Into the Spider-Verse

ActionAdventureAnimationScience FictionComedy

Miles Morales is juggling his life between being a high school student and being Spider-Man. However, when Wilson "Kingpin" Fisk uses a super collider, another Spider-Man from another dimension, Peter Parker, accidentally winds up in Miles' dimension. As Peter trains Miles to become a better Spider-Man, they are soon joined by four other Spider-Men from across the "Spider-Verse". As all these clashing dimensions start to tear Brooklyn apart, Miles must help the others stop Fisk and return everyone to their own dimensions.

Infohash : 42F36EE128D55EDAFCF3D3D9C5DBCD03736A9E6E




Spider-Man Into The Spider-Verse 2018 720p Dual Audio[Hindi BD5.1-English] Bluray H264 ESubs ~RÖñ!N~






General
Format:  Matroska
Format version:  Version 4
File size:  1.39 GiB
Duration:  1 h 56 min
Overall bit rate:  1 700 kb/s

Video
ID:  3
Format:  AVC
Format/Info:  Advanced Video Codec
Format profile:  [email protected]
Format settings:  CABAC / 12 Ref Frames
Format settings, CABAC:  Yes
Format settings, ReFrames:  12 frames
Codec ID:  V_MPEG4/ISO/AVC
Duration:  1 h 56 min
Bit rate:  1 150 kb/s
Width:  1 280 pixels
Height:  536 pixels
Display aspect ratio:  2.40:1
Frame rate mode:  Constant
Frame rate:  23.976 (24000/1001) FPS
Color space:  YUV
Bit depth:  8 bits
Stream size:  961 MiB (68%)
Title:  Spider-Man Into The Spider-Verse 2018 720p Dual Audio[Hindi BD5.1-English] Bluray H264 ESubs ~RÖñ!N~

Audio #1
ID:  1
Format:  AC-3
Format/Info:  Audio Coding 3
Commercial name:  Dolby Digital
Codec ID:  A_AC3
Duration:  1 h 56 min
Bit rate mode:  Constant
Bit rate:  448 kb/s
Channel(s):  6 channels
Channel layout:  L R C LFE Ls Rs
Sampling rate:  48.0 kHz
Frame rate:  31.250 FPS (1536 SPF)
Bit depth:  16 bits
Compression mode:  Lossy
Stream size:  374 MiB (26%)
Title:  Hindi Org BD 5.1 448 kbps By~Hammer~
Language:  Hindi
Service kind:  Complete Main
Default:  Yes
Forced:  No

Audio #2
ID:  4
Format:  AAC LC SBR
Format/Info:  Advanced Audio Codec Low Complexity with Spectral Band Replication
Commercial name:  HE-AAC
Format settings:  Explicit
Codec ID:  A_AAC-2
Duration:  1 h 56 min
Bit rate:  100.0 kb/s
Channel(s):  2 channels
Channel layout:  L R
Sampling rate:  48.0 kHz
Frame rate:  23.438 FPS (2048 SPF)
Compression mode:  Lossy
Delay relative to video:  43 ms
Stream size:  83.6 MiB (6%)
Title:  DD2.0
Language:  English
Default:  No
Forced:  No

Text
ID:  2
Format:  UTF-8
Codec ID:  S_TEXT/UTF8
Codec ID/Info:  UTF-8 Plain Text
Duration:  1 h 55 min
Bit rate:  55 b/s
Count of elements:  1371
Stream size:  46.6 KiB (0%)
Title:  ~RÖñ!N~
Language:  English
Default:  Yes
Forced:  No

Menu
00: 00:00.000: en:00:00:00.000
00: 09:03.793: en:00:09:03.793
00: 14:04.719: en:00:14:04.719
00: 18:51.714: en:00:18:51.714
00: 29:39.027: en:00:29:39.027
00: 34:14.636: en:00:34:14.636
00: 40:34.432: en:00:40:34.432
00: 44:22.827: en:00:44:22.827
00: 48:06.884: en:00:48:06.884
00: 58:45.855: en:00:58:45.855
01: 06:04.460: en:01:06:04.460
01: 09:55.483: en:01:09:55.483
01: 20:00.003: en:01:20:00.003
01: 24:54.923: en:01:24:54.923
01: 33:33.399: en:01:33:33.399
01: 55:26.920: en:01:55:26.920








Enjoy The Quality by RÖñ!N



Files:

Spider-Man Into The Spider-Verse 2018 720p Dual Audio[Hindi BD5.1-English] Bluray H264 ESubs ~RÖñ!N~
  • Spider-Man Into The Spider-Verse 2018 720p Dual Audio[Hindi BD5.1-English] Bluray H264 ESubs ~RÖñ!N~.mkv (1.4 GB)

Comments

Code:

  • udp://tracker.opentrackr.org:1337/announce
  • udp://bt.firebit.co.uk:6969/announce
  • udp://thetracker.org:80/announce
  • udp://tracker.leechers-paradise.org:6969/announce
  • udp://open.stealth.si:80/announce
  • udp://open.demonii.si:1337/announce
  • udp://9.rarbg.to:2710/announce
  • udp://9.rarbg.me:2710/announce
  • udp://9.rarbg.com:2710/announce
  • udp://9.rarbg.me:2730/announce

X
Attention! Use a VPN when Accessing Free Content !
Your IP address is - Country:
Your Internet provider Tracks your Activity! Hide your IP ADDRESS with a VPN!
Bonus: Get Lag-Free Streams & No popups with any VPN Purchased !

Download Here