Pihu (2018) Hindi 720p WEB-Rip x264 AAC 2.0 ~ Ranvijay

  • Category Movies
  • Type Bollywood
  • Language Hindi
  • Total size 1.1 GB
  • Uploaded By TheFighter
  • Downloads 2589
  • Last checked 1 month ago
  • Date uploaded 1 month ago
  • Seeders 24
  • Leechers 8

Pihu

ThrillerDrama

The social thriller starring a two year-old baby girl. She is living in a home where the adults are going through a complicated phase. Being a toddler, she is occasionally trapped in the accidental situations.

Infohash : 1D3A5C0681C77D00C2369AD7C33354B3E83BC7AD





Join My Facebook Group

Pihu (2018) Hindi 720p WEB-Rip x264 AAC 2.0 ~ Ranvijay

Buy RDP Online




Source : Hon3yHD
Format                                   : Matroska
Format version                           : Version 4 / Version 2
File size                                : 1.07 GiB
Duration                                 : 1 h 30 min
Overall bit rate                         : 1 692 kb/s
Movie name                               : Pihu (2018) Hindi 720p WEB-Rip x264 AAC 2.0 ~ Ranvijay

Video
ID                                       : 1
Format                                   : AVC
Format/Info                              : Advanced Video Codec
Duration                                 : 1 h 30 min
Bit rate                                 : 1 500 kb/s
Width                                    : 1 280 pixels
Height                                   : 536 pixels
Display aspect ratio                     : 2.40:1
Frame rate mode                          : Constant
Frame rate                               : 24.000 FPS
Color space                              : YUV
Chroma subsampling                       : 4:2:0
Bit depth                                : 8 bits
Scan type                                : Progressive
Bits/(Pixel*Frame)                       : 0.091
Stream size                              : 967 MiB (89%)
Title                                    : ~Ranvijay~

Audio
ID                                       : 2
Format                                   : AAC
Format/Info                              : Advanced Audio Codec
Format profile                           : LC
Codec ID                                 : A_AAC-2
Duration                                 : 1 h 30 min
Bit rate                                 : 192 kb/s
Channel(s)                               : 2 channels
Channel positions                        : Front: L R
Sampling rate                            : 48.0 kHz
Frame rate                               : 46.875 FPS (1024 SPF)
Compression mode                         : Lossy
Stream size                              : 124 MiB (11%)
Title                                    : ~Ranvijay~
Language                                 : Hindi
Default                                  : Yes
Forced                                   : Yes

















Don't walk as you are king, walk as you don't care who the king is....!!


Files:

Pihu (2018) Hindi 720p WEB-Rip x264 AAC 2.0 ~ Ranvijay
  • SpecialRDP - Premium & Affordable Web Hosting Solution.url (0.0 KB)
  • Sample - Pihu (2018) Hindi 720p WEB-Rip x264 AAC 2.0 ~ Ranvijay.mkv (15.8 MB)
  • Pihu (2018) Hindi 720p WEB-Rip x264 AAC 2.0 ~ Ranvijay.mkv (1.1 GB)

There are currently no comments. Feel free to leave one :)

Code:

  • udp://tracker.pirateparty.gr:6969/announce
  • udp://tracker.tiny-vps.com:6969/announce
  • udp://open.stealth.si:80/announce
  • udp://tracker.opentrackr.org:1337/announce
  • udp://tracker.internetwarriors.net:1337/announce
  • udp://9.rarbg.to:2710/announce
  • udp://tracker1.itzmx.com:8080/announce
  • udp://9.rarbg.me:2740/announce
  • udp://thetracker.org:80/announce
  • udp://tracker.coppersurfer.tk:6969/announce
  • https://tracker.fastdownload.xyz:443/announce
  • udp://torrentclub.tech:6969/announce
  • udp://open.demonii.si:1337/announce
  • https://seeders-paradise.org:443/announce
  • http://share.camoe.cn:8080/announce
  • udp://9.rarbg.com:2740/announce
  • udp://9.rarbg.me:2790/announce
  • http://open.acgnxtracker.com:80/announce
  • udp://9.rarbg.to:2800/announce
  • udp://thetracker.org:80/announce
  • udp://tracker.opentrackr.org:1337/announce
  • udp://tracker.coppersurfer.tk:6969/announce
  • udp://tracker.pirateparty.gr:6969/announce
  • udp://shadowshq.yi.org:6969/announce
  • udp://eddie4.nl:6969/announce
  • udp://tracker.leechers-paradise.org:6969/announce
  • udp://tracker.opentrackr.org:1337/announce
  • udp://p4p.arenabg.ch:1337/announce
  • udp://p4p.arenabg.com:1337/announce
  • udp://9.rarbg.me:2720/announce
  • udp://9.rarbg.to:2710/announce
  • udp://ipv4.tracker.harry.lu:80/announce
  • udp://tracker.grepler.com:6969/announce
  • udp://public.popcorn-tracker.org:6969/announce
  • udp://tracker.opentrackr.org:1337/announce
  • udp://tracker.zer0day.to:1337/announce
  • udp://tracker.leechers-paradise.org:6969/announce
  • udp://coppersurfer.tk:6969/announce

X
Attention! Use a VPN when Accessing Free Content !
Your IP address is - Country:
Your Internet provider Tracks your Activity! Hide your IP ADDRESS with a VPN!
Bonus: Get Lag-Free Streams & No popups with any VPN Purchased !

Download Here