Dead Ringer (2018) 720p WEB-DL 800MB [MovCr]

  • Category Movies
  • Type HD
  • Language English
  • Total size 802.5 MB
  • Uploaded By rock3
  • Downloads 347
  • Last checked 49 years ago
  • Date uploaded 3 months ago
  • Seeders 0
  • Leechers 0

Dead Ringer

Action

Dead Ringer: The Movie is a modern day version of The Prince And The Pauper where one man from a poor background ends up taking over another mans life from the entirely opposite end of the spectrum. Jamie Poulton - lead singer of tribute act 'Dive' - gets the opportunity to replace the iconic Donny Martin from the boy band group D5 with ever gripping twists and turns. This British film asks the question could one man live in another mans shoes and actually get away with it!? Boyband D5's star-studded cast include hunky Luke White, DJ Tom Zanetti (who definitely has a helicopter at multiple times in the film), singers Jordi Whitworth and Shide Boss and TOWIE's Ricky Rayment, along with Eastenders beauty Danielle Harold as the leading lady, sizzling Jessica-Jane Stafford, Amar Adatia and a flurry of gorgeous models and exciting cameos from both the acting world and music industry.

Infohash : B1A8D39D8919B8824B450AB619DCF13C033105E9

Format                      : Matroska
Format version              : Version 4 / Version 2
File size                   : 803 MiB
Duration                    : 1 h 40 min
Overall bit rate            : 1 119 kb/s
Movie name                  : Dead.Ringer.2018.720p.AMZN.WEB-DL.MovCr.cc
Encoded date                : UTC 2018-12-06 14:49:16
Writing application         : mkvmerge v28.1.0 ('Morning Child') 32-bit
Writing library             : libebml v1.3.6 + libmatroska v1.4.9

Video
ID                          : 2
Format                      : AVC
Format/Info                 : Advanced Video Codec
Format profile              : [email protected]
Format settings             : CABAC / 5 Ref Frames
Format settings, CABAC      : Yes
Format settings, ReFrames   : 5 frames
Codec ID                    : V_MPEG4/ISO/AVC
Duration                    : 1 h 40 min
Bit rate                    : 1 054 kb/s
Width                       : 1 280 pixels
Height                      : 534 pixels
Display aspect ratio        : 2.40:1
Original display aspect rat : 2.40:1
Frame rate mode             : Constant
Frame rate                  : 23.976 (24000/1001) FPS
Color space                 : YUV
Chroma subsampling          : 4:2:0
Bit depth                   : 8 bits
Scan type                   : Progressive
Bits/(Pixel*Frame)          : 0.064
Stream size                 : 755 MiB (94%)
Writing library             : x264 core 155 r2901 7d0ff22
Encoding settings           : cabac=1 / ref=5 / deblock=1:0:0 / analyse=0x3:0x113 / me=hex / subme=8 / psy=1 / psy_rd=1.00:0.00 / mixed_ref=1 / me_range=16 / chroma_me=1 / trellis=2 / 8x8dct=1 / cqm=0 / deadzone=21,11 / fast_pskip=1 / chroma_qp_offset=-2 / threads=17 / lookahead_threads=2 / sliced_threads=0 / nr=0 / decimate=1 / interlaced=0 / bluray_compat=0 / constrained_intra=0 / bframes=3 / b_pyramid=2 / b_adapt=1 / b_bias=0 / direct=3 / weightb=1 / open_gop=0 / weightp=2 / keyint=240 / keyint_min=24 / scenecut=40 / intra_refresh=0 / rc_lookahead=50 / rc=2pass / mbtree=1 / bitrate=1054 / ratetol=1.0 / qcomp=0.60 / qpmin=0 / qpmax=69 / qpstep=4 / cplxblur=20.0 / qblur=0.5 / vbv_maxrate=62500 / vbv_bufsize=78125 / nal_hrd=none / filler=0 / ip_ratio=1.40 / aq=1:1.00
Default                     : Yes
Forced                      : No
Color range                 : Limited
Color primaries             : BT.709
Transfer characteristics    : BT.709
Matrix coefficients         : BT.709

Audio
ID                          : 1
Format                      : AAC
Format/Info                 : Advanced Audio Codec
Format profile              : HE-AAC / LC
Format settings             : Explicit
Codec ID                    : A_AAC-2
Duration                    : 1 h 40 min
Bit rate                    : 64.0 kb/s
Channel(s)                  : 2 channels
Channel positions           : Front: L R
Sampling rate               : 48.0 kHz / 24.0 kHz
Frame rate                  : 23.438 FPS (1024 SPF)
Compression mode            : Lossy
Delay relative to video     : 31 ms
Stream size                 : 45.9 MiB (6%)
Language                    : English
Default                     : Yes
Forced                      : No










Files:

  • Dead.Ringer.2018.720p.AMZN.WEB-DL.MovCr.cc.mkv (802.5 MB)

There are currently no comments. Feel free to leave one :)

Code:

  • udp://tracker.leechers-paradise.org:6969/announce
  • udp://eddie4.nl:6969/announce
  • udp://9.rarbg.me:2720/announce
  • udp://9.rarbg.to:2800/announce
  • udp://public.popcorn-tracker.org:6969/announce
  • udp://tracker.opentrackr.org:1337/announce
  • udp://p4p.arenabg.ch:1337/announce
  • udp://tracker.internetwarriors.net:1337/announce
  • udp://tracker.coppersurfer.tk:6969/announce
  • http://torrentsmd.com:8080/announce

X
Attention! Use a VPN when Accessing Free Content !
Your IP address is - Country:
Your Internet provider Tracks your Activity! Hide your IP ADDRESS with a VPN!
Bonus: Get Lag-Free Streams & No popups with any VPN Purchased !

Download Here