All I Want for Christmas Is You (2017) 1080p WEB-DL DD5.1 H.264-L...

  • Category Movies
  • Type HD
  • Language English
  • Total size 3.7 GB
  • Uploaded By LazyRips
  • Downloads 830
  • Last checked 18 minutes ago
  • Date uploaded 3 weeks ago
  • Seeders 14
  • Leechers 6

Mariah Carey's All I Want for Chris...

AnimationFamily

When young Mariah sees a darling little puppy named "Princess" at the pet store, she suddenly knows exactly what she wants for Christmas. But before her Christmas wish can come true, she must prove that she can dog-sit her uncle's dog, Jack, a scraggly rascal; in fact, the worst dog in the county!

Infohash : B7060A13751116B8DBC66E7371F97DC85C4FF242

Mariah Carey's All I Want for Christmas Is You:

Video
ID : 1
Format : AVC
Format/Info : Advanced Video Codec
Format profile : [email protected]
Format settings, CABAC : Yes
Format settings, RefFrames : 4 frames
Codec ID : V_MPEG4/ISO/AVC
Duration : 1 h 30 min
Bit rate : 5 127 kb/s
Width : 1 916 pixels
Height : 1 072 pixels
Display aspect ratio : 16:9
Frame rate mode : Constant
Frame rate : 23.976 (23976/1000) FPS
Color space : YUV
Chroma subsampling : 4:2:0
Bit depth : 8 bits
Scan type : Progressive
Bits/(Pixel*Frame) : 0.104
Stream size : 3.25 GiB (89%)
Language : English
Default : Yes
Forced : No
Color range : Limited
Color primaries : BT.709
Transfer characteristics : BT.709
Matrix coefficients : BT.709

Audio #1
ID : 2
Format : AC-3
Format/Info : Audio Coding 3
Format settings, Endianness : Big
Codec ID : A_AC3
Duration : 1 h 30 min
Bit rate mode : Constant
Bit rate : 384 kb/s
Channel(s) : 6 channels
Channel positions : Front: L C R, Side: L R, LFE
Sampling rate : 48.0 kHz
Frame rate : 31.250 FPS (1536 SPF)
Bit depth : 16 bits
Compression mode : Lossy
Delay relative to video : -42 ms
Stream size : 249 MiB (7%)
Language : English
Service kind : Complete Main
Default : Yes
Forced : No

Audio #2
ID : 3
Format : AAC
Format/Info : Advanced Audio Codec
Format profile : LC
Codec ID : A_AAC
Duration : 1 h 30 min
Bit rate : 126 kb/s
Channel(s) : 2 channels
Channel positions : Front: L R
Sampling rate : 48.0 kHz
Frame rate : 46.875 FPS (1024 SPF)
Compression mode : Lossy
Delay relative to video : -42 ms
Stream size : 81.9 MiB (2%)
Language : French
Default : No
Forced : No

Audio #3
ID : 4
Format : AAC
Format/Info : Advanced Audio Codec
Format profile : LC
Codec ID : A_AAC
Duration : 1 h 30 min
Bit rate : 127 kb/s
Channel(s) : 2 channels
Channel positions : Front: L R
Sampling rate : 48.0 kHz
Frame rate : 46.875 FPS (1024 SPF)
Compression mode : Lossy
Delay relative to video : -42 ms
Stream size : 82.2 MiB (2%)
Language : Spanish
Default : No
Forced : No

Text
ID : 5
Format : UTF-8
Codec ID : S_TEXT/UTF8
Codec ID/Info : UTF-8 Plain Text
Duration : 1 h 29 min
Bit rate : 94 b/s
Count of elements : 1554
Stream size : 62.2 KiB (0%)
Language : English
Default : Yes
Forced : No

Menu
00:00:00.000 : en:1
00:03:51.398 : en:2
00:09:12.135 : en:3
00:14:00.131 : en:4
00:19:02.850 : en:5
00:24:39.311 : en:6
00:29:43.406 : en:7
00:34:12.341 : en:8
00:39:07.427 : en:9
00:44:12.648 : en:10
00:48:19.895 : en:11
00:52:21.094 : en:12
00:57:13.970 : en:13
01:01:26.555 : en:14
01:03:19.334 : en:15
01:07:39.385 : en:16
01:10:45.320 : en:17
01:14:25.873 : en:18
01:20:43.584 : en:19
01:23:33.587 : en:20

Screenshots:

Files:

  • All.I.Want.for.Christmas.Is.You.2017.1080p.WEB-DL.DD5.1.H.264-LAZY.mkv (3.7 GB)

Comments

Code:

  • udp://tracker.opentrackr.org:1337/announce
  • udp://tracker.coppersurfer.tk:6969/announce
  • udp://9.rarbg.me:2780/announce
  • udp://glotorrents.pw:6969/announce
  • udp://tracker.istole.it:80/announce
  • udp://tracker4.piratux.com:6969/announce
  • udp://tracker.publicbt.com:80/announce
  • udp://coppersurfer.tk:6969/announce
  • udp://open.demonii.com:1337/announce
  • udp://tracker.openbittorrent.com:80/announce